#TITLE:Up & Down;
#SUBTITLE:;
#ARTIST:Diva;
#TITLETRANSLIT:;
#SUBTITLETRANSLIT:;
#ARTISTTRANSLIT:Diva;
#CREDIT:;
#BANNER:Up & Down-bn.png;
#BACKGROUND:Up & Down-bg.png;
#LYRICSPATH:;
#CDTITLE:pm4cd.png;
#MUSIC:Up & Down.mp3;
#OFFSET:0.000;
#SAMPLESTART:89.320;
#SAMPLELENGTH:15.000;
#SELECTABLE:YES;
#BPMS:0.000=178.000;
#STOPS:;
#BGCHANGES:;
// cache tags:
#FIRSTBEAT:28.750;
#LASTBEAT:628.000;
#SONGFILENAME:Songs/nhac/Up & Down/Up & Down.sm;
#HASMUSIC:1;
#HASBANNER:1;
#MUSICLENGTH:215.832;
// end cache tags

//---------------dance-single - ----------------
#NOTES:
     dance-single:
     :
     Hard:
     12:
     1.000,1.000,0.954,0.931,0.762,1455.000,206.000,201.000,0.000,39.000:
0000
0000
0000
0000
,
0000
0000
0000
0000
,
0000
0000
0000
0000
,
0000
0000
0000
0000
,
0000
0000
0000
0000
,
0000
0000
0000
0000
,
0000
0000
0000
0000
,
0000
0000
0000
0001
0000
0000
0100
0000
0000
0000
0001
0000
0000
0000
0000
0000
,
1000
0000
0000
0010
0000
0000
0000
0000
1000
0000
0000
0000
0010
0000
0000
0000
,
0100
0001
0000
2020
,
0000
3030
1101
0010
0100
0010
1001
0100
,
0010
1000
0101
0010
0100
0001
1100
0001
,
0010
1000
0101
0010
0100
1000
0011
0100
,
1000
0100
1001
0010
1000
0010
0101
1000
,
0100
0010
1100
0001
0010
0100
0011
0100
,
1000
0100
1001
0010
1000
0100
0011
1000
,
0010
0100
0011
1000
0100
1000
0101
0010
,
0100
0001
1010
0100
0001
1000
0011
1000
,
0100
0000
0010
0000
1101
0000
0000
0000
0000
0010
0000
0101
0000
0000
1000
0000
,
0101
0010
1100
0001
0110
1000
0101
0010
,
1100
0000
0010
0000
1001
0000
0000
0000
0000
0100
0000
1010
0000
0000
0000
0000
,
0100
0010
1000
0010
0100
0001
0100
0010
,
1000
0000
0010
0000
0101
0000
0000
0000
0000
1000
0000
0110
0000
0000
0001
0000
,
0010
0100
1001
0100
0010
0001
1010
0100
,
1000
0000
0100
0000
0011
0000
0000
0000
0000
0100
0000
0011
0000
0000
1000
0000
,
0100
0000
0010
0000
0001
0000
0010
0000
0100
0000
0001
0010
0001
0010
0001
0010
,
0001
0010
0001
0010
1101
0000
0010
0000
1100
0000
0001
0000
1010
0000
0100
0000
,
0011
0001
0101
1000
0110
0010
0101
1000
,
0011
0100
1010
0001
1100
0010
0101
1000
,
0011
0100
0110
1000
0101
0010
1100
0001
,
1010
0100
1011
0100
0110
0010
1010
0100
,
0101
1000
0011
0100
0110
1000
0101
0010
,
1100
0001
1100
0010
0101
1000
1100
0010
,
1010
0001
0101
0101
0101
0010
1010
1010
,
1010
0001
1100
0010
0100
0001
1010
0001
,
0100
0010
1001
0100
0010
1000
0101
1000
,
0100
0010
1100
0010
0100
0001
1010
0001
,
0010
0001
1100
0010
0001
0010
1100
0010
,
0001
1000
0110
1000
0001
0010
1001
0010
,
1000
0010
0101
1000
0100
0010
1100
0001
,
0010
1000
0101
0010
1000
0001
1010
0100
,
0011
1000
0011
0011
0011
0001
1100
1100
,
1100
0010
1101
0010
0200
2300
3200
0320
,
0032
0023
0230
0320
0230
2300
3200
0302
,
0023
0230
2300
3020
0230
0302
0023
2030
,
3020
0230
0302
2003
3200
0320
0230
2300
,
3002
0023
0230
0320
0230
0302
0023
0230
,
0320
0032
2003
3200
0302
0023
0230
0320
,
0230
2300
3101
0010
1100
0001
1010
0100
,
0011
1000
0011
0100
1010
0100
0011
0100
,
1001
0100
1011
0001
0020
2030
3200
0320
,
0032
0203
0320
2030
3200
0302
0023
0230
,
0320
0032
2003
3020
0230
0302
2003
3200
,
2300
3002
0023
0230
2300
3020
0230
0302
,
0023
2030
3200
0302
2003
3200
2300
3002
,
0203
0320
0230
0302
2003
3002
2003
3020
,
0230
0320
1031
0100
0011
1000
0101
0010
,
1100
0001
1010
0100
0011
0100
1001
0010
,
0101
1000
0111
0000
0000
2000
3020
0000
,
0000
0000
0000
0000
0031
0010
0100
1000
0100
0010
0001
0010
0100
1000
0100
0010
,
0001
0010
0100
1000
0111
0000
0000
0000
0000
0000
0002
0000
0203
0000
0001
0000
,
0010
0000
0001
0000
1300
0100
0010
0001
0010
0100
1000
0100
0010
0001
0010
0100
,
1000
0100
0010
0001
1110
0000
0000
0000
0000
0000
0002
0000
0023
0000
0000
0000
,
1000
0000
0100
0000
0031
0010
0100
1000
0100
0010
0001
0010
0100
1000
0100
0010
,
0001
0010
0100
1000
0111
0000
0000
0000
0000
0000
0200
0000
2300
0000
0100
0000
,
0010
0000
0001
0000
3100
0010
0001
0010
0100
1000
0100
0010
0001
0010
0100
1000
,
0101
0000
0010
0000
1101
0010
0001
0100
0010
1000
0010
0100
1000
0100
0010
0001
,
0010
0100
1000
0001
0010
0001
1000
0100
0010
0001
1000
0100
0010
0100
1000
0001
,
0010
0100
0010
0001
1000
0100
0010
0001
0010
0100
1000
0100
0010
0001
0100
1000
,
0100
0010
0001
0100
0010
0001
0010
0100
1000
0100
0010
0001
0010
0100
1000
0100
,
0010
0001
0010
0100
1001
0010
1000
0010
0100
0010
1000
0001
0010
1000
0100
0001
,
0100
1000
0010
0001
0100
0010
1000
0001
0010
1000
0001
0100
0010
0001
0010
0100
,
1000
0010
0100
0001
0010
0100
1000
0010
0100
0001
1000
0100
0010
1000
0001
1000
,
0100
0010
0001
0010
0100
1000
0100
0010
0001
0010
0100
1000
0100
0010
0001
0010
,
0100
1000
0100
0010
0101
1000
0010
1000
0001
0100
0001
0100
0010
0100
0001
0010
,
0001
1000
0100
1000
0010
0100
0010
1000
0100
0010
0001
0010
0100
1000
0010
0100
,
0001
0010
0100
0010
0001
1000
0100
0010
0001
0100
0010
1000
0001
0010
0100
0010
,
0001
1000
0100
0010
0100
1000
0010
0100
0001
0010
0100
1000
0001
0100
0010
0100
,
1000
0010
0100
0010
1001
0100
0001
0100
0010
0100
1000
0010
0100
0010
0001
1000
,
0100
0010
0100
0010
0001
0100
0010
0100
1000
0100
0010
0001
0100
0010
0100
1000
,
0100
0010
0001
0010
0100
1000
0010
0001
0010
0100
1000
0001
0100
0010
0100
1000
,
0100
0001
0010
0000
1100
0000
0001
0000
0110
0000
1000
0000
0101
0000
0010
0000
,
1100
0010
2002
0000
0000
0100
0010
0100
,
0010
0000
0100
0000
0010
0000
3103
0010
0001
0010
0100
0010
0001
0100
1000
0100
,
0010
0100
1000
0100
0011
1000
0100
0010
0100
0010
0001
0000
0100
0000
0010
0000
,
1000
0000
0010
0000
0100
0000
0001
0000
0010
0000
0100
0000
1000
0100
0010
0100
,
0010
0100
1000
0100
0010
0001
0010
0100
0010
0001
0010
0100
1000
0010
0100
0001
,
0100
1000
0100
0010
0001
0000
0100
0000
0010
0000
1000
0000
0010
0100
1000
0000
,
0010
0000
0100
0010
0001
0000
1000
0000
0001
0010
0100
0000
0010
0000
0100
0000
,
0010
0000
1000
0100
0010
0000
0001
0000
0100
0000
0010
0000
1000
0000
0010
0000
,
0100
0001
2110
0001
0010
0100
0011
0100
,
0001
0010
0101
0010
3100
1000
0101
1000
,
0001
0100
0011
0100
1000
0001
0110
0001
,
1000
0100
0011
1000
0100
0010
0101
0010
,
0100
0000
1000
0000
0011
1000
0100
0010
0001
0010
0100
1000
0100
0010
0001
0010
,
0100
1000
0100
0010
0001
0000
0010
0000
0001
0000
0010
0000
1001
0000
0010
0000
,
0001
0010
0101
1000
0100
1000
0011
0100
,
1000
0000
0010
0000
0101
0000
0000
0000
0000
0000
0000
0000
0000
0000
0000
0100
,
0010
0100
0010
0000
1111
0000
1000
0000
0100
0000
1000
0000
0101
0000
0010
0000
,
0100
1000
0011
0100
0010
0100
1001
0010
,
0100
0001
1100
0010
0100
0001
1010
0100
,
1000
0010
0101
1000
0100
0010
1100
0001
,
0010
0100
0011
1000
0100
0010
1100
0001
,
0010
0100
0011
1000
0001
0010
1100
0010
,
1000
0100
0011
1000
0010
0100
1001
0010
,
0100
1000
0001
1000
0001
0000
1000
0001
,
1000
0100
1000
0100
1011
0000
0200
0000
0320
0000
0032
0000
0023
0000
0230
0000
,
0320
0032
0203
0320
0230
2300
3002
0023
,
0230
0320
0032
2003
3020
0230
0302
2003
,
3020
0230
2300
3200
0320
0230
0320
0032
,
0023
0230
0320
2030
3200
0320
0230
2300
,
3002
0023
0230
2300
3020
0032
0023
0230
,
2300
3002
1103
0010
0101
1000
0011
0100
,
1010
0100
0011
1000
0101
0010
1100
0001
,
1010
0100
1011
0002
0023
2030
3200
0302
,
0023
0230
0302
2003
3200
0320
2030
3020
,
0230
0320
0032
0203
0320
0230
2300
3020
,
0230
0302
2003
3200
0302
2003
3020
0230
,
0302
0023
2030
3020
0230
0302
0203
0320
,
2030
3002
0023
0230
0320
0032
2003
3200
,
0320
0230
1301
0010
1100
0001
1010
0100
,
0011
1000
0101
0010
1100
0010
0101
1000
,
0011
1000
0101
0000
0000
0100
1010
0001
,
1000
0001
1100
1000
0001
1000
0001
1000
,
0001
1000
0011
0000
1000
0100
0011
0000
,
0100
0010
0101
1000
0001
0010
0101
1000
,
0100
0010
1001
0000
0000
0100
0011
0000
,
1000
0100
0011
0100
0001
0010
1100
0010
,
0001
0010
0101
1000
0100
0010
1100
0001
,
0010
0000
0100
0000
0011
0000
1000
0000
0100
0000
0010
0100
1000
0100
0010
0001
,
0010
0100
1000
0100
0011
0000
1000
0000
0100
0000
1000
0000
0101
0000
0010
0000
,
0100
0001
1100
0010
0100
1000
0101
0010
,
1000
0100
0011
0100
0001
0010
1100
0001
,
0100
0001
1100
0010
0100
0010
1001
0100
,
0010
0100
1010
0100
0010
0001
1100
0010
,
0100
1000
0101
0010
1000
0001
1100
0010
,
0100
0001
1010
0100
0001
0100
1001
0010
,
0100
0001
1000
0001
1000
0000
1000
0001
,
1000
1000
1000
1000
1011
0100
0010
1000
0100
0010
0100
0001
0010
0100
0010
1000
,
0100
0001
0010
0100
0010
1000
0100
0010
1000
0100
0001
0010
0100
1000
0001
0010
,
0100
0010
0001
1000
0010
0100
0001
0100
0010
1000
0100
0010
0001
0010
0100
1000
,
0010
0100
0001
0010
1000
0100
0001
0010
0001
1000
0100
1000
0001
0100
0010
0100
,
0001
1000
0010
0100
1001
0010
0100
0010
0100
1000
0010
0001
0100
0010
0100
1000
,
0010
0100
0010
0001
1000
0100
0010
0001
1000
0010
0100
0001
0010
0100
0010
1000
,
0100
0010
0100
0001
0010
0100
0010
0100
1000
0100
0001
0010
0100
1000
0010
0001
,
0010
0100
0010
0001
0010
0100
1000
0100
0010
0001
0010
0100
1000
0100
0010
0001
,
1000
0010
0100
0001
1100
0010
1000
0001
0100
0010
0001
0010
0100
1000
0010
0100
,
0001
1000
0100
0010
1000
0001
1000
0010
0100
0001
1000
0100
0010
0100
0010
1000
,
0001
0010
0100
0010
0100
1000
0001
0100
0010
0100
0001
0010
0001
1000
0100
0010
,
0001
0010
0100
1000
0100
0010
0001
0010
0100
1000
0100
0010
0001
0010
0100
1000
,
0100
0010
0001
0010
0101
0010
0100
1000
0001
0010
1000
0010
0100
0001
0010
0100
,
0010
0001
1000
0100
0010
0100
1000
0001
0010
0100
1000
0100
0010
0001
0100
0010
,
1000
0100
0010
0001
0010
0100
1000
0001
0010
0100
0010
0100
1000
0001
0100
0010
,
1000
0010
0100
0001
1100
0000
0110
0000
0011
0000
0110
0000
1100
0000
0101
0000
,
1010
0101
2002
0000
0100
0000
0010
0000
,
0100
0010
0100
0010
,
0100
0010
0100
0010
,
3003
0000
0000
0000
;
